Спор с безбожником.сделано по книге Ахмада Дидата (Muslim707)

Скачать

Спор с безбожником.сделано по книге Ахмада Дидата

Страна: Россия

Режиссер: Muslim707

Продолжительность: 00.17.02

Жанр: Видеолекция ИСЛАМ

Русские субтитры: нет

Перевод: не требуется

Описание: Мой друг любит спорить. Он убежден в нашей наивности, что мы живем иллюзиями, смеется над нашими религиозными чувствами (вера в загробный мир, существование рая, прекрасных гурий), считая, что эти соблазны и земные наслаждения исчезнут вместе с нами. Он по этому поводу приехал из Франции. Имеет звание доктора наук. Он сказал мне с усмешкой:

— Вы утверждаете, что Аллах существует и основой доказательства этому считаете закон логики происхождения, который гласит: для каждого изделия есть свой изобретатель...

Доп. информация: Ахмад дидад родился в июле 1918 г. В августе 1927 г. он перебрался в семьей в Южную Африку. С 9 лет он стал помогать отцу. Изучив английский алфавит в медресе «Анджуман», он освоил английский язык и поступил в школу, став за шесть месяцев лучшим учеником в своем классе, и затем окончил обучение с отличием.

Однако из-за финансовых трудностей Дидат вскоре был вынужден прервать учебу, чтобы самостоятельно зарабатывать на жизнь. Свою первую работу он получил в магазине около Миссии Адама — института на окраине Дурбана, пропагандировавшего христианство и обучавшего его основным положениям.

В период апартеида Ахмед Дидат, основатель Международного центра исламского призыва и Института «Ас-Салам» в г. Дурбан (ЮАР), выступил против засилья христианского миссионерства и традиционного господства западной культуры. Публично обсуждая религиозные вопросы с некоторыми высокопоставленными представителями христианских церквей, он помог мусульманам, уставших ощущать себя «гражданами второго сорта», вновь обрести уверенность в себе. За 60 лет преподавательской, общественной и наставнической деятельности А. Дидата многие люди обратились в ислам.

MediaInfo

Формат : Flash Video

Размер файла : 17,0 Мбайт

Продолжительность : 8 м. 5 с.

Общий поток : 294 Кбит/сек

Видео

Формат : AVC

Формат/Информация : Advanced Video Codec

Профиль формата : Main@L3.0

Параметр CABAC формата : Да

Параметр ReFrames формата : 3 кадры

Продолжительность : 8 м. 5 с.

Битрейт : 232 Кбит/сек

Ширина : 640 пикс.

Высота : 480 пикс.

Соотношение сторон : 4:3

Режим частоты кадров : Постоянный

Частота кадров : 25,000 кадр/сек

Цветовое пространство : YUV

Подвыборка цветности : 4:2:0

Битовая глубина : 8 бит

Тип развёртки : Прогрессивная

Бит/(Пиксели*Кадры) : 0.030

Размер потока : 13,4 Мбайт (79%)

Аудио

Формат : AAC

Формат/Информация : Advanced Audio Codec

Профиль формата : LC

Продолжительность : 8 м. 5 с.

Битрейт : 56,5 Кбит/сек

Канал(ы) : 2 канала(ов)

Расположение каналов : Front: L R

Частота : 22,05 КГц

Битовая глубина : 16 бит

Метод сжатия : С потерями

Размер потока : 3,27 Мбайт (19%)

Полностью книгу "Спор с безбожником" можно скачать здесь

ЗДЕСЬ МОИ РАЗДАЧИ!

Скачать