"Центр улучшения жизни "Ясный". Лекции "Обучение на Полях перехода. Этические состояния"

Скачать

"Центр улучшения жизни "Ясный". Лекции "Обучение на Полях перехода. Этические состояния"

"Центр улучшения жизни "Ясный". Лекции "Обучение на Полях перехода. Этические состояния"

Дата/Год выпуска: 2015

Страна: Россия

Продолжительность: 31:33:48

Перевод: Не требуется

Описание: Технические данные, необходимые для выживания в суровом окружении. Лекции читает дианетический одитор Артур Голубкин, Центр улучшения жизни "Ясный", г. Владивосток. Смотреть имеет смысл после ознакомления с Ясным мостом, ссылки на лекции по нему ниже.

качество: CAMRip

формат: m4v

Видео: MPEG-4, 640x480 (4:3), 1503 kbps, 25 fps

Аудио: AAC, 128 kbps, 44.1 kHz, 2 ch

Список выпусков/серий

Лекция 1. Состояние ПИН

Лекция 2. Состояние ПЛ

Лекция 3. Состояние опасного окружения

Лекция 4. Состояние замешательства

Лекция 5. Состояние предательства

Лекция 6. Состояние врага

Лекция 7. Состояния сомнения, помехи и смены власти

Лекция 8. Состояние несуществования

Лекция 9. Состояние опасности

Лекция 10. Состояние кризиса

Лекция 11. Состояние нормальной деятельности

Лекция 12. Состояние изобилия

MediaInfo

Общее

Полное имя : F:\Elements Downloads\Other Stuff\Цикл лекций Обучение\Обучение на Полях перехода\Zikl_Lekziy_Obuchenie_01_Sostoyanie_PIN.m4v

Формат : MPEG-4

Идентификатор кодека : M4V

Размер файла : 2,15 Гбайт

Продолжительность : 3 ч. 8 м.

Общий поток : 1633 Кбит/сек

Дата кодирования : UTC 2014-07-14 16:04:32

Дата пометки : UTC 2014-07-14 16:04:50

Видео

Идентификатор : 1

Формат : AVC

Формат/Информация : Advanced Video Codec

Профиль формата : Baseline@L3.0

Параметр CABAC формата : Нет

Параметр ReFrames формата : 1 кадр

Идентификатор кодека : avc1

Идентификатор кодека/Информация : Advanced Video Coding

Продолжительность : 3 ч. 8 м.

Вид битрейта : Переменный

Битрейт : 1503 Кбит/сек

Максимальный битрейт : 4006 Кбит/сек

Ширина : 640 пикселей

Высота : 480 пикселей

Соотношение сторон : 4:3

Режим частоты кадров : Постоянный

Частота кадров : 25,000 кадров/сек

Цветовое пространство : YUV

Субдискретизация насыщенности : 4:2:0

Битовая глубина : 8 бит

Тип развёртки : Прогрессивная

Бит/(Пиксели*Кадры) : 0.196

Размер потока : 1,98 Гбайт (92%)

Заголовок : Ћбработчик видео Apple

Язык : English

Дата кодирования : UTC 2014-07-14 12:46:43

Дата пометки : UTC 2014-07-14 16:04:50

Основные цвета : BT.601-6 525, BT.1358 525, BT.1700 NTSC, SMPTE 170M

Характеристики трансфера : BT.709-5, BT.1361

Коэффициенты матрицы : BT.601-6 525, BT.1358 525, BT.1700 NTSC, SMPTE 170M

Аудио

Идентификатор : 2

Формат : AAC

Формат/Информация : Advanced Audio Codec

Профиль формата : LC

Идентификатор кодека : 40

Продолжительность : 3 ч. 8 м.

Вид битрейта : Постоянный

Битрейт : 128 Кбит/сек

Каналы : 2 канала

Расположение каналов : Front: L R

Частота : 44,1 КГц

Метод сжатия : С потерями

Размер потока : 170 Мбайт (8%)

Заголовок : Ћбработчик звука Apple

Язык : English

Дата кодирования : UTC 2014-07-14 12:46:44

Дата пометки : UTC 2014-07-14 16:04:50

Material_Duration : 11323698

Material_StreamSize : 177950798

Ясный Мост

Порядок просмотра и прохождения Полей:

01 Поля перехода

02 Поля исцеления

03 Поля статики. Часть 1

04 Поля статики. Часть 2

05 Поля статики. Часть 3

06 Поля созидания. Часть 1

07 Поля созидания. Часть 2

08 Поля созидания. Часть 3

09 Поля созидания. Часть 4

10 Поля жизни

11 Поля смерти

12 Поля битв

13 Поля причинности

ТЕКСТЫ КО ВСЕМ ЛЕКЦИЯМ

Скачать