Беседа отца Виктора Кузнецова с координатором движения ''Русские Матери'' Ириной Бергсет (Фроловой) о необходимости объединения для противодействия наступающему на Россию ''новому мировому порядку''

Скачать

Беседа отца Виктора Кузнецова с координатором движения ''Русские Матери'' Ириной Бергсет (Фроловой) о необходимости объединения для противодействия наступающему на Россию ''новому мировому порядку''

Беседа отца Виктора Кузнецова с координатором движения ''Русские Матери'' Ириной Бергсет (Фроловой) о необходимости объединения для противодействия наступающему на Россию ''новому мировому порядку''

Год выпуска: 2013

Страна: Россия

Жанр: Православные беседы

Продолжительность: 00:54:58

Перевод: Не требуется

Русские субтитры: нет

Режиссер: Студия православных фильмов во имя Апостола и Евангелиста Иоанна Богослова

Описание: В своей духовной беседе отец Виктор Кузнецов напоминает, что Россия стоит перед последним рубежом - выжить или не выжить семье, а соовтетственно, и самому государству.

Сэмпл: http://www.sendspace.com/file/1up6ci

Качество: SATRip

Формат: AVI

Видео: MPEG-4 Visual, 640*352 (16:9), 630 Кбит/сек, 25,000 кадров/сек

Аудио: Русский, 128 Кбит/сек, 44,1 КГц, 2 канала, MP3

MediaInfo

Общее

Формат : AVI

Формат/Информация : Audio Video Interleave

Размер файла : 303 Мбайт

Продолжительность : 54 м.

Общий поток : 770 Кбит/сек

Видео

Идентификатор : 0

Формат : MPEG-4 Visual

Профиль формата : Advanced Simple@L5

Параметр BVOP формата : 2

Параметр QPel формата : Нет

Параметр GMC формата : Без точки перехода

Параметр матрицы формата : Выборочная

Идентификатор кодека : XVID

Идентификатор кодека/Подсказка : XviD

Продолжительность : 54 м.

Битрейт : 630 Кбит/сек

Ширина : 640 пикселей

Высота : 480 пикселей

Соотношение сторон : 4:3

Частота кадров : 25,000 кадров/сек

Цветовое пространство : YUV

Субдискретизация насыщенности : 4:2:0

Битовая глубина : 8 бит

Тип развёртки : Прогрессивная

Метод сжатия : С потерями

Бит/(Пиксели*Кадры) : 0.082

Размер потока : 248 Мбайт (82%)

Библиотека кодирования : XviD 1.2.1 (UTC 2008-12-04)

Аудио

Идентификатор : 1

Формат : MPEG Audio

Версия формата : Version 1

Профиль формата : Layer 3

Идентификатор кодека : 55

Идентификатор кодека/Подсказка : MP3

Продолжительность : 54 м.

Продолжительность оригинала : 54 м.

Вид битрейта : Постоянный

Битрейт : 128 Кбит/сек

Каналы : 2 канала

Частота : 44,1 КГц

Метод сжатия : С потерями

Размер потока : 50,3 Мбайт (17%)

Выравнивание : Разделение по промежуткам

Продолжительность промежутка : 26 мс. (0,65 видеокадр)

Библиотека кодирования : LAME3.98.2ЄЄЄЄЄЄЄЄЄЄ

Скачать
Похожие книги