Осипов А.И. Ответы на вопросы, г.Подольск

Скачать

Осипов А.И. Ответы на вопросы, г.Подольск

Осипов А.И. Ответы на вопросы, г.Подольск

Дата/Год выпуска: 2013.01.13

Страна: Россия

Жанр: Православная лекция

Продолжительность: 00.32.29

Перевод: Не требуется

Русские субтитры: нет

Оригинальная аудиодорожка: русский

Описание: Лекция профессора МДА Осипова А.И

Доп. информация: Алексей Ильич Осипов - крупный православный катехизатор и апологет современности, педагог и публицист. Заслуженный профессор Московской духовной академии, доктор богословия. Член Президиума Межсоборного присутствия Русской Православной Церкви. Академик РАЕН.

Из обращения А. И. Осипова к посетителям его официального сайта:

"Основная задача публикуемых здесь материалов – обратить внимание современного человека, как верующего, так и неверующего, на вопрос о смысле жизни, и прежде всего на главный вопрос: есть ли Бог и бессмертие человеческой личности или вечная смерть ожидает ее? Наибольшее внимание при этом отводится вопросам духовной жизни, поскольку лишь она способна спасти современного человека от катастрофически нарастающего потока бездуховности в мире.

Сейчас особую остроту приобретает борьба между двумя взаимоисключающими процессами: воцерковлением мира и омiрщением Церкви. Силы омiрщения, как всегда, сплочены, и в связи с небывалым развитием информационных технологий получили особенно широкие возможности эффективно использовать своё мощное оружие поражения: сластолюбие, сребролюбие, славолюбие (авва Дорофей). Мечи и стрелы их не щадят никого, не взирая ни на ученые степени и звания, ни на священный сан, ни на положение в Церкви. Поэтому омiрщение с большой силой проникает в сознание, деятельность и духовную жизнь самих верующих.

Оружие Церкви иное. Как писал в середине 19-го века святитель Игнатий (Брянчанинов): «Для овец оружие волков неестественно. Овцы покоряли волков любовью и кротостью, а если в дело пошли зубы, то овцам не устоять, особенно при нынешнем охлаждении мирян к религии, а паче к духовенству». Эта мысль насколько верна, настолько и трудно исполнима. Ибо для воцерковления мира она требует от верующего не обычного оружия внешней деятельности, но прежде всего внутреннего подвига борьбы со своими страстями, жизни по Евангелию. Лишь такой „деятельностью“ приобретаются любовь и кротость – это непобедимое оружие Христа. Только им можно противостоять омiрщению и воцерковлять мир. Но кто кого в этот раз победит?

качество: HDRip

формат: MPG

Видео: MPEG 2, 1920x1080 (16:9), 25.000 fps, 11.9 Mbps (0.230 bit/pixel)

Аудио: MP2, 44.1 KHz, 2 ch, 128 Kbps, CBR

MediaInfo

Формат : MPEG-PS

Размер файла : 2,79 Гбайт

Продолжительность : 32 м.

Режим общего битрейта : Переменный

Общий поток : 12,3 Мбит/сек

Видео

Идентификатор : 224 (0xE0)

Формат : MPEG Video

Версия формата : Version 2

Профиль формата : Main@High

Параметр BVOP формата : Нет

Параметр матрицы формата : По умолчанию

Параметр GOP формата : Variable

Продолжительность : 32 м.

Вид битрейта : Переменный

Битрейт : 11,9 Мбит/сек

Ширина : 1920 пикселей

Высота : 1080 пикселей

Соотношение сторон : 16:9

Частота кадров : 25,000 кадров/сек

Цветовое пространство : YUV

Субдискретизация насыщенности : 4:2:0

Битовая глубина : 8 бит

Тип развёртки : Прогрессивная

Метод сжатия : С потерями

Бит/(Пиксели*Кадры) : 0.230

Временной код первого кадра : 00:00:00:00

Оригинал временного кода : Group of pictures header

Размер потока : 2,70 Гбайт (97%)

Аудио

Идентификатор : 192 (0xC0)

Формат : MPEG Audio

Версия формата : Version 1

Профиль формата : Layer 2

Продолжительность : 32 м.

Вид битрейта : Постоянный

Битрейт : 128 Кбит/сек

Каналы : 2 канала

Частота : 44,1 КГц

Метод сжатия : С потерями

Размер потока : 29,7 Мбайт (1%)

Скачать